<?xml version="1.0" standalone="no"?>
<!DOCTYPE svg PUBLIC "-//W3C//DTD SVG 1.1//EN" "http://www.w3.org/Graphics/SVG/1.1/DTD/svg11.dtd" >
<svg xmlns="http://www.w3.org/2000/svg" xmlns:xlink="http://www.w3.org/1999/xlink" version="1.1">
<metadata>
Created by FontForge 20200511 at Wed Jan 12 15:35:29 2022
 By convertio
</metadata>
<defs>
<font id="checknews" horiz-adv-x="512" >
  <font-face 
    font-family="checknews"
    font-weight="400"
    font-stretch="normal"
    units-per-em="512"
    panose-1="2 0 5 9 0 0 0 0 0 0"
    ascent="480"
    descent="-32"
    bbox="0 6 512.111 506.126"
    underline-thickness="0"
    underline-position="0"
    unicode-range="U+E000-E049"
  />
<missing-glyph 
 />
    <glyph glyph-name=".notdef" 
 />
    <glyph glyph-name=".notdef" 
 />
    <glyph glyph-name="binocular" unicode="&#xe000;" 
d="M500 202c-2 11 -5 22 -6 34c-4 24 -18 40 -38 53c-3 2 -6 5 -7 9c-2 22 -5 43 -8 64c-1 11 -4 21 -11 30c-8 9 -18 16 -29 20c-29 11 -58 11 -85 -3c-20 -10 -36 -24 -35 -50c0 -3 -3 -4 -6 -4c-12 3 -25 2 -37 0c-5 -1 -6 1 -6 6c0 8 -2 15 -6 22s-9 13 -16 17
c-16 12 -36 19 -56 19c-22 1 -42 -3 -59 -16c-12 -9 -21 -20 -23 -36c-3 -22 -6 -44 -8 -66c-1 -6 -4 -10 -9 -13c-16 -11 -30 -24 -34 -44c-7 -38 -18 -75 -20 -114c-1 -13 -1 -27 7 -40c10 -17 25 -31 44 -40c23 -10 48 -15 73 -12c30 4 57 15 77 38c11 12 18 26 19 42
c1 11 1 23 1 34c0 5 2 6 6 5c18 -5 38 -5 56 0c5 1 7 0 7 -6c0 -11 0 -22 1 -32c1 -18 8 -32 20 -45c23 -24 52 -35 85 -37c23 -1 46 4 67 15c17 8 30 21 41 37c5 8 5 17 7 26v18c-2 23 -7 46 -12 69zM169 89c-16 -12 -37 -19 -64 -18c-18 0 -39 5 -56 20
c-24 21 -23 49 2 68c20 16 44 21 69 19c18 -2 35 -7 50 -19c25 -20 25 -50 -1 -70zM282 191c-7 -6 -16 -9 -26 -9c-9 0 -18 3 -25 9c-9 8 -9 19 -1 27c13 12 39 12 52 0c9 -8 9 -19 0 -27zM481 121c-1 -14 -9 -24 -20 -32c-17 -13 -37 -18 -60 -19c-22 1 -44 7 -62 23
c-20 19 -20 44 0 63c15 14 34 20 53 22c26 2 49 -3 70 -19c12 -9 20 -22 19 -38zM321 424c18 7 38 10 57 7c4 -1 8 -2 13 -2c3 -1 6 1 6 5c-1 8 -1 18 -7 25c-10 11 -23 15 -37 16c-5 0 -11 -1 -16 -2c-12 -4 -23 -10 -29 -22c-3 -6 -1 -12 -1 -18c1 -12 2 -13 14 -9z
M125 429c14 3 27 4 41 2c10 -2 20 -5 30 -9c6 -2 8 0 9 6c0 3 0 7 1 10c1 13 -6 22 -16 28c-9 6 -18 8 -28 8c-25 2 -43 -12 -46 -36c-1 -8 1 -10 9 -9z" />
    <glyph glyph-name="binocular-o" unicode="&#xe001;" 
d="M362 399c11 0 22 -2 32 -6c8 -3 14 -8 20 -15c3 -4 6 -10 6 -18c2 -13 4 -27 5 -41c1 -7 3 -15 3 -23c2 -11 7 -19 17 -25c16 -10 25 -23 28 -38c2 -11 4 -21 6 -31l1 -5c0 -3 1 -6 1 -9c2 -7 4 -15 5 -23c-3 4 -7 8 -11 11c-20 16 -44 23 -71 23h-14
c-26 -2 -48 -12 -65 -27c-5 -5 -10 -11 -13 -17c-2 13 -9 19 -15 21c8 7 12 17 13 28c0 11 -5 21 -13 29c-10 10 -25 15 -41 15c-15 0 -30 -5 -40 -15c-9 -8 -13 -18 -13 -29s5 -21 12 -28c-7 -3 -13 -10 -14 -21c-5 8 -11 15 -18 20c-17 14 -38 22 -61 24h-13
c-27 0 -51 -8 -71 -23c-4 -3 -8 -7 -12 -11c3 14 6 29 9 44c2 10 5 20 7 31s9 21 24 30c11 7 17 16 19 28c1 14 3 27 4 40c2 9 3 18 4 27c1 5 3 12 14 21c12 8 25 12 43 12h3c16 0 32 -5 45 -15c4 -3 7 -6 10 -10c2 -4 3 -8 3 -12c0 -8 2 -15 7 -20s11 -7 18 -7h6
c5 1 10 2 15 2s9 -1 14 -2h6c7 0 13 3 18 7c5 5 7 12 7 19c-1 10 3 20 23 30c12 6 24 9 37 9zM362 420c-16 0 -32 -4 -46 -11c-20 -10 -36 -24 -35 -50c0 -3 -2 -4 -4 -4h-2c-6 1 -12 2 -18 2c-7 0 -13 -1 -19 -2h-2c-3 0 -4 1 -4 6c0 8 -2 15 -6 22s-9 13 -16 17
c-16 12 -36 19 -56 19c-2 0 -3 1 -4 1c-20 0 -39 -5 -55 -17c-12 -9 -21 -20 -23 -36c-3 -22 -6 -44 -8 -66c-1 -6 -4 -10 -9 -13c-16 -11 -30 -24 -34 -44c-7 -38 -18 -75 -20 -114c-1 -13 -1 -27 7 -40c10 -17 25 -31 44 -40c23 -10 48 -15 73 -12c30 4 57 15 77 38
c11 12 18 26 19 42c1 11 1 23 1 34c0 4 1 5 3 5h3c9 -3 19 -4 28 -4s19 1 28 4h3c3 0 4 -2 4 -6c0 -11 0 -22 1 -32c1 -18 8 -32 20 -45c23 -24 52 -35 85 -37h7c21 0 41 5 60 15c17 8 30 21 41 37c5 8 5 17 7 26v18c-2 23 -7 46 -12 69c-2 11 -5 22 -6 34
c-4 24 -18 40 -38 53c-3 2 -6 5 -7 9c-2 22 -5 43 -8 64c-1 11 -4 21 -11 30c-8 9 -18 16 -29 20c-12 5 -26 8 -39 8zM256 182c-9 0 -18 3 -25 9c-9 8 -9 19 -1 27c7 6 17 9 26 9c10 0 20 -3 26 -9c9 -8 9 -19 0 -27c-7 -6 -16 -9 -26 -9zM401 70c-22 1 -44 7 -62 23
c-20 19 -20 44 0 63c15 14 34 20 53 22h12c21 0 40 -5 58 -19c12 -9 20 -22 19 -38c-2 -14 -9 -24 -20 -32c-17 -13 -37 -18 -60 -19zM106 70h-1c-18 1 -39 6 -56 21c-24 21 -23 49 2 68c17 14 37 19 58 19h11c18 -2 35 -7 50 -19c25 -20 25 -50 -1 -70
c-16 -12 -36 -18 -63 -18v-1zM353 475c-5 0 -11 -1 -16 -2c-12 -4 -23 -10 -29 -22c-3 -6 -1 -12 -1 -18c0 -8 1 -11 5 -11c2 0 5 1 9 2c13 5 27 8 42 8c5 0 10 0 15 -1c4 -1 8 -2 13 -2h1c3 0 5 1 5 4c-1 9 -1 18 -7 26c-10 11 -23 15 -37 16zM158 475
c-23 0 -40 -15 -42 -37c-1 -7 0 -9 5 -9h4c8 2 16 3 25 3c5 0 10 0 16 -1c10 -2 20 -5 30 -9h4c3 0 4 2 5 6c0 3 0 7 1 10c1 13 -6 22 -16 28c-9 6 -18 8 -28 8c-2 1 -3 1 -4 1z" />
    <glyph glyph-name="camera" unicode="&#xe002;" 
d="M256 304c-26 0 -49 -15 -59 -39c-9 -24 -4 -51 14 -69c19 -18 46 -23 69 -13c24 10 39 33 39 59c0 16 -7 32 -19 44s-28 18 -44 18zM512 363c0 6 -1 13 -5 19c-7 9 -17 15 -29 15h-83c-6 0 -10 2 -13 8c-8 14 -17 28 -24 43c-6 12 -15 17 -28 17h-148
c-13 0 -22 -5 -28 -17c-7 -14 -16 -28 -23 -42c-4 -7 -8 -9 -16 -9h-82c-12 0 -21 -6 -29 -15c-3 -4 -2 -10 -4 -14v-292c1 0 1 -1 1 -2c1 -9 6 -15 14 -20c8 -6 18 -7 28 -7h425c4 0 8 0 12 1c20 2 32 15 32 35v280zM256 115c-70 0 -126 57 -126 126c0 70 56 126 126 126
c69 1 125 -56 126 -126c0 -69 -57 -126 -126 -126z" />
    <glyph glyph-name="camera-o" unicode="&#xe003;" 
d="M256 283c23 -1 41 -19 41 -42s-18 -41 -41 -42v0c-15 0 -29 8 -37 21s-8 29 0 42s22 21 37 21v0zM256 304c-35 0 -63 -29 -62 -63c0 -34 27 -62 62 -63v0c34 1 62 29 62 63c0 35 -28 63 -62 63zM330 444c5 0 7 -1 9 -6c5 -9 10 -19 15 -28l9 -15c5 -9 14 -19 32 -19v0h41
h39h3c4 0 8 -1 12 -7v-6v-280c0 -8 -2 -13 -13 -14c-3 0 -6 -1 -9 -1h-146h-279c-8 0 -13 1 -16 3c-5 3 -5 4 -5 5v4v285v4l1 1c3 5 7 6 10 6h41h41h1c15 0 26 7 34 20c3 5 6 11 9 17c5 8 10 17 14 26c2 4 3 5 9 5v0h75h73v0zM330 465h-73h-75v0c-13 0 -22 -5 -28 -17
c-7 -14 -16 -28 -23 -42c-4 -6 -8 -9 -15 -9v0h-42h-41c-12 0 -21 -6 -29 -15c-3 -4 -2 -10 -4 -14v-292c1 0 1 -1 1 -2c1 -9 6 -15 14 -20c8 -6 18 -7 28 -7h279h146c4 0 8 0 12 1c20 2 32 15 32 35v280c0 6 -1 13 -5 19c-7 10 -17 15 -29 15h-42h-41v0c-6 0 -10 2 -13 8
c-8 14 -17 28 -24 43c-6 12 -15 17 -28 17zM256 346c57 0 104 -47 104 -105c0 -57 -47 -104 -104 -104v0c-58 0 -105 46 -105 104c0 28 11 54 31 74c19 20 46 31 74 31v0zM256 367c-70 0 -126 -56 -126 -126c0 -69 56 -126 126 -126v0c69 0 126 57 126 127
c-1 69 -57 125 -126 125z" />
    <glyph glyph-name="heart" unicode="&#xe004;" 
d="M0 312v34c1 6 1 13 2 19c3 24 14 46 29 66c17 22 39 38 66 47s54 10 81 3c28 -8 50 -23 69 -45c9 -10 9 -10 17 0c23 26 50 43 84 48s65 -1 94 -19c36 -23 58 -55 67 -97c4 -16 3 -33 2 -49c0 -10 0 -20 -2 -29c-7 -28 -20 -53 -38 -75c-16 -22 -35 -41 -54 -59
s-39 -35 -58 -52c-23 -19 -45 -39 -68 -58c-4 -3 -8 -6 -11 -10c-14 -13 -34 -13 -48 0c-31 26 -62 53 -92 79c-15 13 -30 26 -44 40c-19 17 -37 35 -52 55c-17 21 -31 44 -39 70c-3 10 -4 20 -5 31c1 0 0 1 0 1z" />
    <glyph glyph-name="heart-o" unicode="&#xe005;" 
d="M143 465c10 0 20 -1 30 -4c22 -6 42 -19 59 -38v-1c6 -6 12 -14 24 -14c11 0 18 8 23 14l1 1c20 23 43 37 71 41c7 1 13 1 19 1c22 0 43 -6 62 -17c14 -9 27 -21 37 -36c10 -14 16 -30 20 -48c3 -14 3 -28 2 -45v-5c0 -7 0 -14 -2 -19c-5 -23 -16 -45 -34 -68
c-14 -18 -31 -37 -52 -56c-19 -18 -38 -35 -58 -52c-10 -8 -20 -17 -30 -26c-12 -10 -25 -21 -37 -32l-3 -2c-3 -2 -6 -5 -9 -8s-7 -4 -10 -4c-4 0 -7 1 -11 4c-18 16 -37 33 -56 48c-12 11 -24 21 -36 31c-13 12 -27 25 -44 39c-18 17 -34 35 -50 54c-16 20 -28 41 -35 63
c-2 6 -2 13 -3 20v6c0 1 -1 3 -1 4v28c1 4 1 8 1 12c0 2 0 4 1 6c3 20 11 38 25 56c15 20 34 34 56 41c13 4 26 6 40 6zM143 486c-16 0 -31 -3 -46 -8c-27 -9 -49 -25 -66 -47c-15 -20 -26 -42 -29 -66c-1 -6 -1 -13 -2 -19v-34l1 -1c0 -11 1 -21 4 -31c8 -26 22 -49 39 -70
c16 -20 33 -38 52 -55c14 -14 29 -27 44 -40c31 -26 61 -53 92 -79c7 -7 15 -10 24 -10c8 0 17 4 24 10c3 4 7 7 11 10c23 19 45 39 68 58c19 17 39 34 58 52s38 37 54 59c17 22 31 47 38 75c2 9 2 19 3 29c0 16 1 33 -3 49c-9 42 -31 74 -67 97c-21 14 -46 21 -72 21
c-7 0 -14 -1 -22 -2c-34 -5 -61 -22 -84 -48c-4 -5 -6 -8 -8 -8c-3 0 -5 3 -9 8c-19 22 -41 37 -69 45c-12 3 -23 5 -35 5z" />
    <glyph glyph-name="weight" unicode="&#xe006;" 
d="M507 84c-12 66 -24 132 -37 198c-5 28 -23 43 -52 43h-75c-2 0 -4 -1 -6 1c44 51 30 120 -10 154c-42 35 -102 35 -143 -1c-40 -35 -52 -103 -9 -153c-2 -1 -4 -1 -6 -1h-78c-25 0 -44 -16 -49 -41c-13 -70 -26 -141 -40 -211c-2 -10 -3 -21 0 -32c7 -22 26 -35 51 -35
h406h9c25 2 45 24 44 50c0 10 -3 19 -5 28zM329 396c-2 -41 -36 -73 -75 -71c-40 2 -72 35 -71 74c2 41 36 73 75 71c41 -1 72 -35 71 -74z" />
    <glyph glyph-name="weight-o" unicode="&#xe007;" 
d="M311 320l11 -11c5 -4 11 -7 18 -7c1 0 3 1 3 1h39h36c9 0 16 -2 21 -6s8 -10 9 -19c12 -59 23 -120 34 -178l4 -20c0 -2 1 -5 1 -7c1 -7 3 -12 3 -17c0 -14 -10 -26 -25 -27c-2 -1 -4 -1 -6 -1h-250h-156c-11 0 -25 4 -30 20c-2 6 0 13 1 21c6 32 12 65 18 96
c7 38 15 77 22 115c3 15 12 23 27 23h31h47h2c5 0 10 1 14 3l22 11c14 -9 30 -13 46 -14h4c19 0 38 6 54 17zM256 506c-27 0 -52 -10 -72 -27c-40 -35 -52 -103 -9 -153c-1 -1 -2 -1 -4 -1h-2h-8h-39h-31c-25 0 -44 -16 -49 -41c-13 -70 -26 -141 -40 -211
c-2 -10 -3 -21 0 -32c7 -22 26 -35 51 -35h156h250h9c25 2 45 24 44 50c0 10 -3 19 -5 28c-12 66 -24 132 -37 198c-5 28 -23 43 -52 43h-36h-39h-3c-1 0 -2 0 -3 1c44 51 30 120 -10 154c-20 17 -45 26 -71 26zM257 325h-3c-40 2 -72 35 -71 74c2 40 34 71 72 71h3
c41 -2 72 -35 71 -74c-2 -40 -34 -71 -72 -71z" />
    <glyph glyph-name="combi-0x-o" unicode="&#xe008;" 
d="M169 302c0 106 85 192 193 192v-23c-95 0 -169 -76 -169 -169s74 -168 169 -168v-24c-108 0 -193 86 -193 192zM296 190c-38 0 -57 42 -57 113c0 70 19 112 57 112c39 0 58 -43 58 -113c0 -71 -19 -112 -58 -112zM296 218c16 0 22 32 22 85c0 52 -6 84 -22 84
c-15 0 -21 -33 -21 -85c0 -53 6 -84 21 -84z" />
    <glyph glyph-name="combi-1x-o-1" unicode="&#xe009;" 
d="M169 302c0 106 85 192 193 192v-23c-95 0 -169 -76 -169 -169s74 -168 169 -168v-24c-108 0 -193 86 -193 192zM288 194v177l-24 -30l-13 23l47 47h26v-217h-36z" />
    <glyph glyph-name="combi-2x-o" unicode="&#xe00a;" 
d="M169 302c0 106 85 192 193 192v-23c-95 0 -169 -76 -169 -169s74 -168 169 -168v-24c-108 0 -193 86 -193 192zM241 194v33c23 37 68 79 68 126c0 19 -9 33 -22 33c-18 0 -36 -12 -39 -16l-3 30c8 7 28 15 48 15c33 0 53 -24 53 -63c0 -63 -41 -88 -63 -130h67v-28h-109z
" />
    <glyph glyph-name="combi-3x-o" unicode="&#xe00b;" 
d="M169 302c0 106 85 192 193 192v-23c-95 0 -169 -76 -169 -169s74 -168 169 -168v-24c-108 0 -193 86 -193 192zM239 198l1 31c3 -3 19 -10 33 -10c21 0 36 13 36 34c0 28 -14 39 -35 39h-13v29h10c20 0 37 9 37 33c0 20 -11 32 -28 32c-16 0 -30 -8 -34 -12l-2 30
c6 4 21 11 40 11c37 0 61 -23 61 -58c0 -26 -15 -45 -36 -51c23 -6 37 -24 37 -54c0 -40 -27 -62 -69 -62c-18 0 -33 6 -38 8z" />
    <glyph glyph-name="combi-5x-o" unicode="&#xe00c;" 
d="M169 302c0 106 85 192 193 192v-23c-95 0 -169 -76 -169 -169s74 -168 169 -168v-24c-108 0 -193 86 -193 192zM238 199l2 33c10 -5 21 -10 38 -10c23 0 37 18 37 43c0 21 -12 40 -40 40c-16 0 -27 -4 -33 -7v113h100v-31h-69v-49c6 1 13 2 23 2c30 0 55 -24 55 -67
c0 -48 -26 -76 -67 -76c-20 0 -36 6 -46 9z" />
    <glyph glyph-name="combi-4x-o" unicode="&#xe00d;" 
d="M169 302c0 106 85 192 193 192v-23c-95 0 -169 -76 -169 -169s74 -168 169 -168v-24c-108 0 -193 86 -193 192zM233 241v30l57 140h47v-142h22v-28h-22v-47h-34v47h-70zM268 269h35v96z" />
    <glyph glyph-name="combi-6x-o" unicode="&#xe00e;" 
d="M169 302c0 106 85 192 193 192v-23c-95 0 -169 -76 -169 -169s74 -168 169 -168v-24c-108 0 -193 86 -193 192zM296 190c-35 0 -56 31 -56 104c0 77 25 121 70 121c15 0 28 -5 35 -7l-4 -31c-6 4 -16 9 -27 9c-32 0 -40 -44 -41 -74c6 11 16 20 28 20c33 0 52 -26 52 -70
s-23 -72 -57 -72zM296 218c12 0 20 18 20 43c0 26 -7 43 -20 43c-12 0 -20 -13 -20 -52c0 -13 7 -34 20 -34z" />
    <glyph glyph-name="combi-7x-o" unicode="&#xe00f;" 
d="M169 302c0 106 85 192 193 192v-23c-95 0 -169 -76 -169 -169s74 -168 169 -168v-24c-108 0 -193 86 -193 192zM251 194l62 188h-73v29h108v-29l-58 -188h-39z" />
    <glyph glyph-name="combi-8x-o" unicode="&#xe010;" 
d="M169 302c0 106 85 192 193 192v-23c-95 0 -169 -76 -169 -169s74 -168 169 -168v-24c-108 0 -193 86 -193 192zM237 249c0 29 12 46 35 58c-28 15 -35 34 -35 53c0 34 24 55 59 55c34 0 58 -21 58 -52c0 -23 -15 -45 -35 -54c24 -12 36 -30 36 -59c0 -36 -24 -60 -60 -60
c-34 0 -58 24 -58 59zM298 321c7 4 19 18 19 38c0 16 -9 28 -22 28s-23 -13 -23 -29s12 -28 26 -37zM296 218c13 0 22 13 22 32c0 20 -9 32 -25 42c-13 -10 -20 -21 -20 -41c0 -19 11 -33 23 -33z" />
    <glyph glyph-name="combi-9x-o" unicode="&#xe011;" 
d="M169 302c0 106 85 192 193 192v-23c-95 0 -169 -76 -169 -169s74 -168 169 -168v-24c-108 0 -193 86 -193 192zM248 197l3 30c7 -4 16 -8 27 -8c32 0 40 45 40 73c-4 -11 -15 -20 -26 -20c-33 0 -52 26 -52 71c0 43 22 72 55 72c36 0 57 -31 57 -104
c0 -78 -26 -121 -70 -121c-15 0 -28 4 -34 7zM295 301c18 0 21 29 21 46c0 19 -6 40 -21 40c-11 0 -19 -19 -19 -44c0 -26 7 -42 19 -42z" />
    <glyph glyph-name="combi-0x" unicode="&#xe012;" 
d="M169 302c0 106 85 192 193 192v-384c-108 0 -193 86 -193 192zM294 189c40 0 60 42 60 113s-20 113 -60 113s-60 -42 -60 -113s20 -113 60 -113zM294 220c-13 0 -19 31 -19 82s6 83 19 83c14 0 19 -32 19 -83s-5 -82 -19 -82z" />
    <glyph glyph-name="combi-1x" unicode="&#xe013;" 
d="M169 302c0 106 85 192 193 192v-384c-108 0 -193 86 -193 192zM285 193h39v219h-29l-47 -48l15 -27l22 27v-171z" />
    <glyph glyph-name="combi-2x" unicode="&#xe014;" 
d="M169 302c0 106 85 192 193 192v-384c-108 0 -193 86 -193 192zM237 193h113v31h-65c10 15 20 27 30 43c9 14 31 54 31 85c0 39 -21 63 -55 63c-21 0 -41 -9 -50 -16l3 -34c5 4 24 19 41 19c11 0 20 -13 20 -31c0 -46 -45 -90 -68 -125v-35z" />
    <glyph glyph-name="combi-3x" unicode="&#xe015;" 
d="M169 302c0 106 85 192 193 192v-384c-108 0 -193 86 -193 192zM234 199c6 -3 23 -10 41 -10c44 0 71 23 71 63c0 29 -11 46 -33 54c18 8 32 26 32 50c0 36 -25 59 -63 59c-20 0 -36 -7 -42 -12l2 -33c5 4 21 14 36 14s26 -12 26 -30c0 -23 -16 -32 -35 -32h-12v-32h15
c19 0 33 -10 33 -36c0 -20 -14 -33 -34 -33c-12 0 -24 6 -37 12v-34z" />
    <glyph glyph-name="combi-4x" unicode="&#xe016;" 
d="M169 302c0 106 85 192 193 192v-384c-108 0 -193 86 -193 192zM229 240h69v-47h39v47h22v31h-22v141h-51l-57 -141v-31zM268 271l30 80v-80h-30z" />
    <glyph glyph-name="combi-5x" unicode="&#xe017;" 
d="M169 302c0 106 85 192 193 192v-384c-108 0 -193 86 -193 192zM234 199c11 -3 27 -9 48 -9c42 0 69 28 69 77c0 43 -26 67 -57 67c-8 0 -15 0 -20 -1v45h68v34h-104v-117c7 3 20 9 35 9c26 0 37 -19 37 -39c0 -24 -13 -41 -35 -41c-14 0 -27 6 -39 13z" />
    <glyph glyph-name="combi-6x" unicode="&#xe018;" 
d="M169 302c0 106 85 192 193 192v-384c-108 0 -193 86 -193 192zM294 189c35 0 59 29 59 73c0 45 -20 71 -55 71c-9 0 -17 -5 -24 -11c2 27 11 62 38 62c10 0 21 -6 28 -11c1 6 4 28 5 35c-7 2 -21 7 -37 7c-46 0 -72 -43 -72 -121c0 -74 22 -105 58 -105zM294 220
c-11 0 -17 20 -17 33c0 37 6 49 17 49s18 -16 18 -40s-8 -42 -18 -42z" />
    <glyph glyph-name="combi-7x" unicode="&#xe019;" 
d="M169 302c0 106 85 192 193 192v-384c-108 0 -193 86 -193 192zM246 193h44l58 188v31h-112v-32h71z" />
    <glyph glyph-name="combi-8x" unicode="&#xe01a;" 
d="M169 302c0 106 85 192 193 192v-384c-108 0 -193 86 -193 192zM233 250c0 -36 26 -61 61 -61c36 0 61 24 61 62c0 28 -11 45 -33 58c18 10 32 31 32 53c0 32 -25 53 -59 53c-37 0 -62 -21 -62 -56c0 -19 8 -37 33 -52c-20 -12 -33 -30 -33 -57zM297 323
c-13 8 -25 21 -25 34c0 15 10 28 21 28c12 0 20 -11 20 -27c0 -18 -9 -31 -16 -35zM295 220c-11 0 -21 14 -21 31c0 19 6 29 17 39c15 -9 23 -22 23 -39c0 -19 -8 -31 -19 -31z" />
    <glyph glyph-name="combi-9x" unicode="&#xe01b;" 
d="M169 302c0 106 85 192 193 192v-384c-108 0 -193 86 -193 192zM244 197c6 -3 20 -8 36 -8c45 0 72 44 72 122c0 74 -22 104 -59 104c-34 0 -57 -29 -57 -73c0 -45 19 -72 54 -72c8 0 18 6 24 13c-2 -27 -11 -62 -38 -62c-10 0 -19 4 -28 9zM293 302c-10 0 -17 16 -17 41
c0 24 8 42 17 42c13 0 18 -20 18 -38c0 -17 -2 -45 -18 -45z" />
    <glyph glyph-name="combi-x0-o" unicode="&#xe01c;" 
d="M150 110v24c95 0 169 75 169 168s-74 169 -169 169v23c108 0 193 -86 193 -192s-85 -192 -193 -192zM216 190c-39 0 -58 42 -58 113c0 70 19 112 58 112c38 0 57 -43 57 -113c0 -71 -19 -112 -57 -112zM216 218c15 0 21 32 21 85c0 52 -6 84 -21 84
c-16 0 -22 -33 -22 -85c0 -53 6 -84 22 -84z" />
    <glyph glyph-name="combi-x2-o" unicode="&#xe01d;" 
d="M150 110v24c95 0 169 75 169 168s-74 169 -169 169v23c108 0 193 -86 193 -192s-85 -192 -193 -192zM160 194v33c23 37 68 79 68 126c0 19 -9 33 -22 33c-18 0 -36 -12 -39 -16l-3 30c8 7 28 15 48 15c33 0 53 -24 53 -63c0 -63 -41 -88 -63 -130h67v-28h-109z" />
    <glyph glyph-name="combi-x1-o" unicode="&#xe01e;" 
d="M150 110v24c95 0 169 75 169 168s-74 169 -169 169v23c108 0 193 -86 193 -192s-85 -192 -193 -192zM207 194v177l-24 -30l-13 23l47 47h26v-217h-36z" />
    <glyph glyph-name="combi-x3-o" unicode="&#xe01f;" 
d="M150 110v24c95 0 169 75 169 168s-74 169 -169 169v23c108 0 193 -86 193 -192s-85 -192 -193 -192zM158 198l1 31c3 -3 19 -10 33 -10c22 0 36 13 36 34c0 28 -14 39 -35 39h-13v29h10c20 0 37 9 37 33c0 20 -11 32 -28 32c-16 0 -30 -8 -34 -12l-2 30c6 4 21 11 40 11
c37 0 61 -23 61 -58c0 -26 -15 -45 -36 -51c23 -6 37 -24 37 -54c0 -40 -26 -62 -69 -62c-18 0 -33 6 -38 8z" />
    <glyph glyph-name="combi-x4-o" unicode="&#xe020;" 
d="M150 110v24c95 0 169 75 169 168s-74 169 -169 169v23c108 0 193 -86 193 -192s-85 -192 -193 -192zM222 194v47h-69v30l56 140h47v-142h23v-28h-23v-47h-34zM187 269h35v96z" />
    <glyph glyph-name="combi-x5-o" unicode="&#xe021;" 
d="M150 110v24c95 0 169 75 169 168s-74 169 -169 169v23c108 0 193 -86 193 -192s-85 -192 -193 -192zM157 199l2 33c10 -5 21 -10 38 -10c23 0 37 18 37 43c0 21 -12 40 -40 40c-16 0 -27 -4 -33 -7v113h100v-31h-68v-49c5 1 12 2 22 2c30 0 55 -24 55 -67
c0 -48 -26 -76 -67 -76c-20 0 -36 6 -46 9z" />
    <glyph glyph-name="combi-x6-o" unicode="&#xe022;" 
d="M150 110v24c95 0 169 75 169 168s-74 169 -169 169v23c108 0 193 -86 193 -192s-85 -192 -193 -192zM216 190c-36 0 -57 31 -57 104c0 77 25 121 70 121c15 0 29 -5 35 -7l-4 -31c-6 4 -16 9 -27 9c-32 0 -39 -44 -40 -74c5 11 15 20 27 20c33 0 52 -26 52 -70
s-23 -72 -56 -72zM216 218c11 0 20 18 20 43c0 26 -8 43 -20 43c-13 0 -20 -13 -20 -52c0 -13 6 -34 20 -34z" />
    <glyph glyph-name="combi-x7-o" unicode="&#xe023;" 
d="M150 110v24c95 0 169 75 169 168s-74 169 -169 169v23c108 0 193 -86 193 -192s-85 -192 -193 -192zM170 194l62 188h-73v29h108v-29l-58 -188h-39z" />
    <glyph glyph-name="combi-x8-o" unicode="&#xe024;" 
d="M150 110v24c95 0 169 75 169 168s-74 169 -169 169v23c108 0 193 -86 193 -192s-85 -192 -193 -192zM215 190c-35 0 -59 24 -59 59c0 29 12 46 35 58c-28 15 -35 34 -35 53c0 34 24 55 60 55c33 0 57 -21 57 -52c0 -23 -15 -45 -35 -54c24 -12 36 -30 36 -59
c0 -36 -24 -60 -59 -60zM218 321c6 4 19 18 19 38c0 16 -10 28 -23 28s-23 -13 -23 -29s12 -28 27 -37zM216 218c12 0 21 13 21 32c0 20 -9 32 -25 42c-13 -10 -19 -21 -19 -41c0 -19 10 -33 23 -33z" />
    <glyph glyph-name="combi-x9-o" unicode="&#xe025;" 
d="M150 110v24c95 0 169 75 169 168s-74 169 -169 169v23c108 0 193 -86 193 -192s-85 -192 -193 -192zM167 197l3 30c7 -4 16 -8 27 -8c32 0 41 45 41 73c-5 -11 -16 -20 -27 -20c-33 0 -52 26 -52 71c0 43 22 72 56 72c35 0 56 -31 56 -104c0 -78 -26 -121 -70 -121
c-15 0 -28 4 -34 7zM215 301c17 0 20 29 20 46c0 19 -6 40 -20 40c-12 0 -20 -19 -20 -44c0 -26 7 -42 20 -42z" />
    <glyph glyph-name="combi-x0" unicode="&#xe026;" 
d="M150 110v384c108 0 193 -86 193 -192s-85 -192 -193 -192zM218 189c40 0 60 42 60 113s-20 113 -60 113s-60 -42 -60 -113s20 -113 60 -113zM218 220c-13 0 -19 31 -19 82s6 83 19 83s19 -32 19 -83s-6 -82 -19 -82z" />
    <glyph glyph-name="combi-x1" unicode="&#xe027;" 
d="M150 110v384c108 0 193 -86 193 -192s-85 -192 -193 -192zM207 193h39v219h-28l-48 -48l15 -27l22 27v-171z" />
    <glyph glyph-name="combi-x2" unicode="&#xe028;" 
d="M150 110v384c108 0 193 -86 193 -192s-85 -192 -193 -192zM160 193h113v31h-65c11 15 20 27 31 43c8 14 30 54 30 85c0 39 -21 63 -55 63c-20 0 -41 -9 -50 -16l3 -34c5 4 24 19 41 19c12 0 20 -13 20 -31c0 -46 -45 -90 -68 -125v-35z" />
    <glyph glyph-name="combi-x3" unicode="&#xe029;" 
d="M150 110v384c108 0 193 -86 193 -192s-85 -192 -193 -192zM158 199c5 -3 22 -10 40 -10c44 0 71 23 71 63c0 29 -11 46 -33 54c18 8 32 26 32 50c0 36 -25 59 -63 59c-20 0 -36 -7 -42 -12l2 -33c5 4 21 14 36 14c16 0 26 -12 26 -30c0 -23 -16 -32 -34 -32h-13v-32h15
c20 0 33 -10 33 -36c0 -20 -14 -33 -34 -33c-12 0 -24 6 -36 12v-34z" />
    <glyph glyph-name="combi-x4" unicode="&#xe02a;" 
d="M150 110v384c108 0 193 -86 193 -192s-85 -192 -193 -192zM221 193h39v47h23v31h-23v141h-51l-56 -141v-31h68v-47zM191 271l30 80v-80h-30z" />
    <glyph glyph-name="combi-x5" unicode="&#xe02b;" 
d="M150 110v384c108 0 193 -86 193 -192s-85 -192 -193 -192zM157 199c11 -3 27 -9 48 -9c42 0 69 28 69 77c0 43 -26 67 -57 67c-8 0 -15 0 -20 -1v45h68v34h-104v-117c7 3 20 9 35 9c26 0 37 -19 37 -39c0 -24 -12 -41 -34 -41c-15 0 -27 6 -40 13z" />
    <glyph glyph-name="combi-x6" unicode="&#xe02c;" 
d="M150 110v384c108 0 193 -86 193 -192s-85 -192 -193 -192zM218 189c34 0 58 29 58 73c0 45 -20 71 -54 71c-10 0 -18 -5 -24 -11c2 27 10 62 38 62c9 0 20 -6 28 -11c0 6 3 28 4 35c-7 2 -21 7 -37 7c-46 0 -72 -43 -72 -121c0 -74 22 -105 59 -105zM218 220
c-12 0 -18 20 -18 33c0 37 6 49 18 49c10 0 17 -16 17 -40s-8 -42 -17 -42z" />
    <glyph glyph-name="combi-x7" unicode="&#xe02d;" 
d="M150 110v384c108 0 193 -86 193 -192s-85 -192 -193 -192zM170 193h44l58 188v31h-113v-32h72z" />
    <glyph glyph-name="combi-x8" unicode="&#xe02e;" 
d="M150 110v384c108 0 193 -86 193 -192s-85 -192 -193 -192zM217 189c36 0 61 24 61 62c0 28 -11 45 -34 58c19 10 33 31 33 53c0 32 -25 53 -59 53c-38 0 -62 -21 -62 -56c0 -19 7 -37 33 -52c-21 -12 -33 -30 -33 -57c0 -36 25 -61 61 -61zM220 323c-13 8 -25 21 -25 34
c0 15 10 28 21 28c12 0 20 -11 20 -27c0 -18 -10 -31 -16 -35zM218 220c-12 0 -21 14 -21 31c0 19 5 29 17 39c14 -9 23 -22 23 -39c0 -19 -8 -31 -19 -31z" />
    <glyph glyph-name="combi-x9" unicode="&#xe02f;" 
d="M150 110v384c108 0 193 -86 193 -192s-85 -192 -193 -192zM167 197c7 -3 20 -8 36 -8c45 0 72 44 72 122c0 74 -22 104 -58 104c-35 0 -58 -29 -58 -73c0 -45 20 -72 54 -72c8 0 18 6 24 13c-1 -27 -11 -62 -38 -62c-10 0 -19 4 -27 9zM217 302c-11 0 -17 16 -17 41
c0 24 7 42 17 42c12 0 17 -20 17 -38c0 -17 -2 -45 -17 -45z" />
    <glyph glyph-name="num-0" unicode="&#xe030;" 
d="M64 302c0 106 86 192 192 192s192 -86 192 -192s-86 -192 -192 -192s-192 86 -192 192zM256 189c39 0 60 42 60 113s-21 113 -60 113c-40 0 -60 -42 -60 -113s20 -113 60 -113zM256 220c-13 0 -19 31 -19 82s6 83 19 83s19 -32 19 -83s-6 -82 -19 -82z" />
    <glyph glyph-name="num-1" unicode="&#xe031;" 
d="M64 302c0 106 86 192 192 192s192 -86 192 -192s-86 -192 -192 -192s-192 86 -192 192zM244 193h39v219h-29l-47 -48l15 -27l22 27v-171z" />
    <glyph glyph-name="num-2" unicode="&#xe032;" 
d="M64 302c0 106 86 192 192 192s192 -86 192 -192s-86 -192 -192 -192s-192 86 -192 192zM200 193h114v31h-66c11 15 21 27 31 43c9 14 31 54 31 85c0 39 -22 63 -56 63c-20 0 -40 -9 -49 -16l3 -34c4 4 24 19 41 19c11 0 19 -13 19 -31c0 -46 -44 -90 -68 -125v-35z" />
    <glyph glyph-name="num-3" unicode="&#xe033;" 
d="M64 302c0 106 86 192 192 192s192 -86 192 -192s-86 -192 -192 -192s-192 86 -192 192zM204 199c5 -3 22 -10 40 -10c44 0 71 23 71 63c0 29 -11 46 -33 54c19 8 32 26 32 50c0 36 -25 59 -63 59c-20 0 -35 -7 -42 -12l2 -33c6 4 21 14 36 14c16 0 26 -12 26 -30
c0 -23 -16 -32 -34 -32h-13v-32h15c20 0 33 -10 33 -36c0 -20 -14 -33 -34 -33c-12 0 -24 6 -36 12v-34z" />
    <glyph glyph-name="num-4" unicode="&#xe034;" 
d="M64 302c0 106 86 192 192 192s192 -86 192 -192s-86 -192 -192 -192s-192 86 -192 192zM187 240h68v-47h39v47h23v31h-23v141h-50l-57 -141v-31zM226 271l29 80v-80h-29z" />
    <glyph glyph-name="num-5" unicode="&#xe035;" 
d="M64 302c0 106 86 192 192 192s192 -86 192 -192s-86 -192 -192 -192s-192 86 -192 192zM204 199c11 -3 27 -9 47 -9c42 0 70 28 70 77c0 43 -26 67 -57 67c-8 0 -16 0 -20 -1v45h68v34h-105v-117c8 3 21 9 36 9c26 0 37 -19 37 -39c0 -24 -13 -41 -35 -41
c-15 0 -27 6 -39 13z" />
    <glyph glyph-name="num-6" unicode="&#xe036;" 
d="M64 302c0 106 86 192 192 192s192 -86 192 -192s-86 -192 -192 -192s-192 86 -192 192zM252 189c35 0 58 29 58 73c0 45 -20 71 -54 71c-10 0 -18 -5 -24 -11c2 27 10 62 38 62c9 0 20 -6 28 -11c0 6 4 28 5 35c-8 2 -21 7 -37 7c-46 0 -72 -43 -72 -121
c0 -74 21 -105 58 -105zM252 220c-12 0 -18 20 -18 33c0 37 7 49 18 49s17 -16 17 -40s-7 -42 -17 -42z" />
    <glyph glyph-name="num-7" unicode="&#xe037;" 
d="M64 302c0 106 86 192 192 192s192 -86 192 -192s-86 -192 -192 -192s-192 86 -192 192zM211 193h44l58 188v31h-112v-32h71z" />
    <glyph glyph-name="num-8" unicode="&#xe038;" 
d="M64 302c0 106 86 192 192 192s192 -86 192 -192s-86 -192 -192 -192s-192 86 -192 192zM195 250c0 -36 25 -61 60 -61c37 0 61 24 61 62c0 28 -10 45 -33 58c19 10 33 31 33 53c0 32 -25 53 -59 53c-38 0 -62 -21 -62 -56c0 -19 7 -37 33 -52c-21 -12 -33 -30 -33 -57z
M259 323c-13 8 -25 21 -25 34c0 15 10 28 21 28c12 0 20 -11 20 -27c0 -18 -10 -31 -16 -35zM236 251c0 19 5 29 17 39c14 -9 22 -22 22 -39c0 -19 -7 -31 -18 -31c-12 0 -21 14 -21 31z" />
    <glyph glyph-name="num-9" unicode="&#xe039;" 
d="M64 302c0 106 86 192 192 192s192 -86 192 -192s-86 -192 -192 -192s-192 86 -192 192zM208 197c7 -3 20 -8 36 -8c45 0 72 44 72 122c0 74 -22 104 -58 104c-35 0 -58 -29 -58 -73c0 -45 20 -72 54 -72c8 0 18 6 24 13c-2 -27 -11 -62 -38 -62c-10 0 -19 4 -28 9z
M258 302c-11 0 -17 16 -17 41c0 24 7 42 17 42c12 0 17 -20 17 -38c0 -17 -2 -45 -17 -45z" />
    <glyph glyph-name="num-10" unicode="&#xe03a;" 
d="M64 302c0 106 86 192 192 192s192 -86 192 -192s-86 -192 -192 -192s-192 86 -192 192zM305 189c40 0 60 42 60 113s-20 113 -60 113s-60 -42 -60 -113s20 -113 60 -113zM177 193h39v219h-29l-47 -48l14 -27l23 27v-171zM305 220c-13 0 -19 31 -19 82s6 83 19 83
s19 -32 19 -83s-6 -82 -19 -82z" />
    <glyph glyph-name="num-0-o" unicode="&#xe03b;" 
d="M64 302c0 106 86 192 192 192s192 -86 192 -192s-86 -192 -192 -192s-192 86 -192 192zM88 302c0 -93 75 -168 168 -168s168 75 168 168s-75 169 -168 169s-168 -76 -168 -169zM256 190c-39 0 -58 42 -58 113c0 70 19 112 58 112s58 -43 58 -113c0 -71 -19 -112 -58 -112
zM256 218c15 0 22 32 22 85c0 52 -7 84 -22 84s-22 -33 -22 -85c0 -53 7 -84 22 -84z" />
    <glyph glyph-name="num-1-o" unicode="&#xe03c;" 
d="M64 302c0 106 86 192 192 192s192 -86 192 -192s-86 -192 -192 -192s-192 86 -192 192zM88 302c0 -93 75 -168 168 -168s168 75 168 168s-75 169 -168 169s-168 -76 -168 -169zM246 194v177l-24 -30l-13 23l46 47h27v-217h-36z" />
    <glyph glyph-name="num-2-o" unicode="&#xe03d;" 
d="M64 302c0 106 86 192 192 192s192 -86 192 -192s-86 -192 -192 -192s-192 86 -192 192zM88 302c0 -93 75 -168 168 -168s168 75 168 168s-75 169 -168 169s-168 -76 -168 -169zM202 194v33c23 37 68 79 68 126c0 19 -9 33 -22 33c-18 0 -36 -12 -39 -16l-3 30
c8 7 28 15 48 15c33 0 53 -24 53 -63c0 -63 -41 -88 -63 -130h67v-28h-109z" />
    <glyph glyph-name="num-3-o" unicode="&#xe03e;" 
d="M64 302c0 106 86 192 192 192s192 -86 192 -192s-86 -192 -192 -192s-192 86 -192 192zM88 302c0 -93 75 -168 168 -168s168 75 168 168s-75 169 -168 169s-168 -76 -168 -169zM206 198l1 31c3 -3 19 -10 33 -10c22 0 36 13 36 34c0 28 -14 39 -35 39h-13v29h11
c20 0 36 9 36 33c0 20 -11 32 -28 32c-16 0 -29 -8 -34 -12l-2 30c6 4 21 11 40 11c37 0 61 -23 61 -58c0 -26 -15 -45 -36 -51c24 -6 37 -24 37 -54c0 -40 -26 -62 -69 -62c-18 0 -33 6 -38 8z" />
    <glyph glyph-name="num-4-o" unicode="&#xe03f;" 
d="M64 302c0 106 86 192 192 192s192 -86 192 -192s-86 -192 -192 -192s-192 86 -192 192zM88 302c0 -93 75 -168 168 -168s168 75 168 168s-75 169 -168 169s-168 -76 -168 -169zM189 241v30l57 140h46v-142h23v-28h-23v-47h-34v47h-69zM224 269h34v96z" />
    <glyph glyph-name="num-5-o" unicode="&#xe040;" 
d="M64 302c0 106 86 192 192 192s192 -86 192 -192s-86 -192 -192 -192s-192 86 -192 192zM88 302c0 -93 75 -168 168 -168s168 75 168 168s-75 169 -168 169s-168 -76 -168 -169zM206 199l2 33c10 -5 20 -10 37 -10c24 0 38 18 38 43c0 21 -13 40 -40 40
c-17 0 -27 -4 -34 -7v113h101v-31h-69v-49c5 1 12 2 23 2c30 0 55 -24 55 -67c0 -48 -27 -76 -68 -76c-19 0 -35 6 -45 9z" />
    <glyph glyph-name="num-6-o" unicode="&#xe041;" 
d="M64 302c0 106 86 192 192 192s192 -86 192 -192s-86 -192 -192 -192s-192 86 -192 192zM88 302c0 -93 75 -168 168 -168s168 75 168 168s-75 169 -168 169s-168 -76 -168 -169zM252 190c-36 0 -56 31 -56 104c0 77 25 121 70 121c15 0 28 -5 35 -7l-5 -31
c-6 4 -15 9 -26 9c-33 0 -40 -44 -41 -74c5 11 15 20 27 20c33 0 52 -26 52 -70s-22 -72 -56 -72zM252 218c11 0 20 18 20 43c0 26 -8 43 -20 43c-13 0 -20 -13 -20 -52c0 -13 7 -34 20 -34z" />
    <glyph glyph-name="num-7-o" unicode="&#xe042;" 
d="M64 302c0 106 86 192 192 192s192 -86 192 -192s-86 -192 -192 -192s-192 86 -192 192zM88 302c0 -93 75 -168 168 -168s168 75 168 168s-75 169 -168 169s-168 -76 -168 -169zM214 194l61 188h-72v29h108v-29l-58 -188h-39z" />
    <glyph glyph-name="num-8-o" unicode="&#xe043;" 
d="M64 302c0 106 86 192 192 192s192 -86 192 -192s-86 -192 -192 -192s-192 86 -192 192zM88 302c0 -93 75 -168 168 -168s168 75 168 168s-75 169 -168 169s-168 -76 -168 -169zM197 249c0 29 12 46 35 58c-28 15 -35 34 -35 53c0 34 24 55 60 55c33 0 57 -21 57 -52
c0 -23 -15 -45 -35 -54c24 -12 36 -30 36 -59c0 -36 -24 -60 -60 -60c-34 0 -58 24 -58 59zM259 321c6 4 19 18 19 38c0 16 -10 28 -23 28s-23 -13 -23 -29s12 -28 27 -37zM233 251c0 -19 11 -33 24 -33c12 0 21 13 21 32c0 20 -9 32 -25 42c-13 -10 -20 -21 -20 -41z" />
    <glyph glyph-name="num-9-o" unicode="&#xe044;" 
d="M64 302c0 106 86 192 192 192s192 -86 192 -192s-86 -192 -192 -192s-192 86 -192 192zM88 302c0 -93 75 -168 168 -168s168 75 168 168s-75 169 -168 169s-168 -76 -168 -169zM210 197l4 30c6 -4 15 -8 26 -8c32 0 41 45 41 73c-5 -11 -16 -20 -27 -20
c-33 0 -52 26 -52 71c0 43 22 72 56 72c35 0 56 -31 56 -104c0 -78 -26 -121 -70 -121c-15 0 -28 4 -34 7zM258 301c17 0 20 29 20 46c0 19 -6 40 -20 40c-12 0 -20 -19 -20 -44c0 -26 7 -42 20 -42z" />
    <glyph glyph-name="num-10-o" unicode="&#xe045;" 
d="M64 302c0 106 86 192 192 192s192 -86 192 -192s-86 -192 -192 -192s-192 86 -192 192zM88 302c0 -93 75 -168 168 -168s168 75 168 168s-75 169 -168 169s-168 -76 -168 -169zM305 190c-39 0 -58 42 -58 113c0 70 19 112 58 112s57 -43 57 -113c0 -71 -18 -112 -57 -112
zM178 194v177l-24 -30l-13 23l47 47h26v-217h-36zM305 218c15 0 21 32 21 85c0 52 -6 84 -21 84c-16 0 -22 -33 -22 -85c0 -53 6 -84 22 -84z" />
    <glyph glyph-name="einzelarbeit" unicode="&#xe046;" 
d="M439 147c-1 0 -2 -1 -2 -2c-5 -6 -12 -9 -18 -5c-4 3 -8 9 -9 15c-2 15 0 32 -4 47c-10 39 -45 67 -85 67c-48 1 -96 0 -144 0c-50 0 -90 -33 -93 -82c-3 -46 -1 -91 -1 -137h49c0 3 1 7 1 10c0 20 -1 39 0 59c0 10 -2 17 -9 24c-10 9 -6 22 5 25c2 1 5 1 7 0
c10 -2 26 -22 26 -32v-76v-10h169v10v76c0 10 15 31 26 32c4 1 11 -2 15 -6c4 -5 4 -13 -1 -17c-13 -9 -11 -21 -11 -33v-62h50v28c-1 9 0 16 9 20s15 -1 20 -7v-71h-376c-8 5 -10 12 -10 21c0 42 1 84 0 126c-3 69 44 125 116 132c-30 30 -42 66 -34 107c5 27 19 49 40 66
c45 35 107 33 148 -6c24 -22 37 -50 37 -83s-13 -60 -37 -84c30 -3 56 -13 77 -33c20 -19 33 -42 37 -69c0 -2 1 -3 2 -5v-45zM162 383c0 -46 38 -84 84 -84s84 38 85 84c0 47 -38 85 -85 84c-47 0 -84 -37 -84 -84z" />
    <glyph glyph-name="gruppenarbeit" unicode="&#xe047;" 
d="M379 335c23 1 46 1 68 0c19 0 36 -13 40 -31c2 -7 1 -15 2 -23c1 -2 3 -5 5 -6c2 -2 6 -1 8 2l1 1v21c0 1 -1 1 -1 2c-2 13 -8 24 -17 33c-10 9 -22 14 -37 15c12 12 18 25 18 40s-6 29 -17 39c-20 18 -49 20 -70 3c-10 -8 -17 -19 -19 -31c-4 -20 2 -36 16 -50
c-34 -4 -56 -30 -55 -63v0c-7 -2 -15 -5 -21 -10c-3 -2 -5 -5 -7 -7c-3 2 -6 4 -9 3c-5 -2 -5 -6 -5 -10v-13h-23v29c0 6 -1 12 5 16c2 2 3 5 0 8c-1 1 -5 3 -7 3c-5 -1 -12 -11 -12 -16v-35v-5h-79v5v35c0 5 -8 15 -13 16h-3c-5 -2 -7 -8 -3 -12c4 -3 5 -7 5 -11v-28v-5h-3
c-3 10 -9 19 -18 25l-3 3c0 12 0 24 1 36c1 24 20 39 44 39h67c19 0 36 -13 40 -31c2 -8 1 -15 3 -23c0 -2 2 -5 4 -7c3 -1 6 0 8 3c0 0 1 0 1 1v21c0 1 0 1 -1 2c-2 13 -8 24 -17 33c-10 9 -22 14 -36 15c11 11 17 24 17 40c0 15 -6 29 -17 39c-20 18 -49 19 -70 3
c-10 -8 -17 -19 -19 -31c-4 -20 2 -36 16 -51c-34 -3 -56 -30 -55 -62c1 -7 1 -14 1 -21c-18 6 -38 2 -53 -11c-11 -11 -17 -24 -17 -40c0 -15 6 -28 17 -39c-14 -1 -26 -6 -36 -16c-10 -9 -16 -19 -18 -32v-2v-22l1 -1c2 -3 5 -4 8 -2c2 1 4 4 4 7c1 7 1 15 2 22
c5 19 21 31 40 32h68c24 0 42 -16 44 -39c1 -21 0 -43 0 -64h-23v4v28c0 5 1 8 4 11c5 4 3 11 -2 12c-1 0 -3 1 -4 0c-4 -1 -12 -10 -12 -15v-36v-4h-79v4v36c0 5 -8 15 -12 15c-3 0 -6 -1 -8 -3s-2 -6 1 -8c6 -4 5 -10 5 -15v-29h-24v13c1 4 0 8 -4 9c-4 2 -7 0 -9 -3v-33
h177c4 2 5 5 5 9c-1 20 -1 40 0 60c1 32 -21 59 -55 62c12 12 18 26 17 42h132c-1 -15 5 -29 17 -41c-34 -3 -56 -30 -55 -62c1 -20 0 -40 0 -59c0 -5 1 -8 5 -10h177v33c-3 3 -5 5 -10 3c-4 -1 -4 -5 -4 -9v-13h-23v29c0 6 -1 11 5 16c2 1 2 5 0 7s-5 4 -7 3
c-5 0 -12 -10 -12 -15v-35v-5h-80v5v35c0 5 -7 14 -12 16c-1 0 -2 0 -3 -1c-6 -1 -7 -7 -3 -11s5 -7 5 -12c-1 -9 0 -18 0 -27c0 -2 0 -4 -1 -5h-23c0 21 -1 43 1 64c1 23 20 39 43 39h68c19 0 36 -13 40 -32c2 -7 1 -15 2 -22c1 -3 3 -6 5 -7c2 -2 6 0 8 2c0 1 1 1 1 2v21
s-1 1 -1 2c-2 13 -8 24 -17 33c-10 9 -22 14 -37 15c7 7 12 15 15 23h119v33c-3 3 -5 5 -9 4c-5 -2 -5 -6 -5 -10v-13h-23v29c0 6 -1 12 5 16c2 1 3 5 0 8c-1 1 -5 3 -7 2c-5 0 -12 -10 -12 -15v-35v-5h-65v3c0 14 -5 26 -14 36v1c0 5 -8 15 -13 16c-1 0 -2 0 -3 -1
c-2 0 -3 -1 -4 -3c-6 3 -12 4 -18 4c0 3 1 6 1 8c0 24 19 39 42 39zM373 389c-1 22 17 40 39 40s40 -18 40 -40s-18 -40 -40 -40s-39 18 -39 40zM162 407c0 22 18 40 40 40s40 -18 40 -40s-18 -40 -40 -40s-39 18 -40 40zM95 194c-22 0 -40 18 -40 40c0 21 18 39 40 39
s40 -17 40 -39c-1 -22 -18 -40 -40 -40zM359 265l6 -6v0c0 -1 0 -1 1 -1v-1s1 0 1 -1v0s0 -1 1 -1v-1v-1h1v-1c0 -1 0 -1 1 -1v-1v-1l1 -1v-1v-1v0l1 -1v-1v-1c1 -3 1 -5 1 -8v-3c-1 -5 -2 -9 -4 -14c-6 -13 -20 -23 -36 -23c-22 0 -39 18 -39 40c-1 18 11 33 27 38
c1 0 2 0 3 1v0h3c1 0 2 0 3 1v0h3h2c9 -1 17 -4 24 -10z" />
    <glyph glyph-name="partnerarbeit" unicode="&#xe048;" 
d="M413 207c28 0 51 -19 58 -45c2 -10 1 -21 3 -32c0 -3 3 -8 6 -10c4 -2 8 0 11 4c1 0 2 1 2 1v31c0 1 -1 2 -1 3c-3 18 -12 33 -25 46c-14 14 -31 20 -52 22c16 16 25 35 25 57s-8 41 -25 56c-27 26 -69 27 -99 3c-14 -11 -24 -26 -27 -44c-5 -28 3 -51 23 -72
c-8 0 -16 -2 -23 -5c0 10 0 19 1 29c1 46 -30 84 -78 89c19 20 28 43 22 71c-3 18 -12 33 -27 45c-30 23 -71 22 -99 -4c-16 -15 -25 -34 -25 -56s9 -41 25 -57c-20 -1 -37 -8 -52 -22c-13 -12 -22 -28 -25 -46c0 -1 0 -2 -1 -3v-30c1 -1 1 -2 2 -2c3 -4 8 -6 12 -3
c3 2 5 6 6 9c1 11 0 22 3 32c6 27 30 45 57 45c32 1 64 1 97 0c33 0 59 -22 62 -55c1 -17 1 -34 1 -52c-15 -9 -25 -23 -31 -40h-3v7v39c0 7 1 12 6 17c6 5 4 14 -3 16c-2 1 -4 1 -5 1c-7 -2 -18 -15 -18 -22v-51v-7h-113v7v51c0 7 -10 21 -17 21c-3 1 -8 -1 -10 -4
c-3 -3 -3 -8 0 -11c9 -6 8 -14 8 -22c-1 -14 0 -28 0 -42h-34v19c0 6 0 11 -6 13c-6 3 -10 -1 -14 -5v-47h204v-13c1 -29 0 -57 0 -85c0 -6 2 -11 7 -14h252v47c-3 4 -7 8 -13 5c-6 -2 -7 -8 -6 -13v-19h-34v41c0 9 -1 17 7 23c4 2 4 8 1 11c-3 2 -7 4 -10 4
c-7 -1 -18 -14 -18 -22v-50v-7h-113v7v50c0 7 -10 21 -17 22c-2 1 -4 1 -5 0c-8 -2 -10 -11 -4 -17c5 -4 7 -9 7 -16c-1 -13 0 -26 0 -39c0 -3 -1 -5 -1 -7h-33c0 31 -1 61 1 92v0c0 3 0 5 1 8v0v2s0 1 1 1v2v0c0 1 1 2 1 2v1c0 1 1 1 1 2v0c0 1 0 2 1 2c2 6 6 11 9 15
c6 6 13 11 20 14c9 4 18 6 28 6h96zM160 339c-31 0 -57 26 -57 57s25 57 57 56c31 0 56 -25 56 -56s-25 -57 -56 -57zM307 284c0 31 25 56 56 56c32 0 57 -25 57 -56c0 -32 -26 -57 -56 -57c-32 0 -57 25 -57 57z" />
    <glyph glyph-name="plenum" unicode="&#xe049;" 
d="M263 440c0 2 -2 4 -4 4c-3 0 -5 -2 -5 -4v-2v-1v-55c0 -5 -2 -7 -7 -7h-10h-35c-3 0 -5 0 -7 -2c-5 -3 -10 -7 -16 -10c-1 -1 -3 -2 -4 -3v9c0 5 -2 6 -7 6h-15h-36c-4 0 -6 2 -6 6v88c0 3 2 5 6 5h131c4 0 6 -2 6 -5v-6v-6c0 -3 2 -5 4 -5c3 0 5 2 5 5v8v3
c0 10 -6 16 -16 16h-129c-11 0 -16 -6 -16 -16v-86c0 -10 5 -16 16 -16h32h15v-3v-10c0 -2 0 -4 3 -6h2c2 0 3 1 4 1l1 1c8 6 16 11 24 16c1 1 3 1 4 1h31h13c10 0 16 6 16 16v47v9v0v2zM417 415h-129c-10 0 -16 -6 -16 -16v-3v-8c0 -3 2 -6 4 -6c3 0 5 2 5 6v5v6
c0 4 2 6 6 6h131c4 0 6 -2 6 -6v-87c0 -4 -2 -6 -6 -6h-36h-16c-5 0 -6 -1 -6 -6v-10c-2 2 -3 3 -5 4c-5 3 -10 7 -15 10c-2 1 -5 2 -7 2h-1h-34h-10c-5 0 -7 2 -7 7v55v1v2c-1 2 -3 4 -5 3c-2 0 -4 -1 -4 -4v-1v-1v-4v-51c0 -11 5 -16 15 -16h14h31c1 0 2 -1 3 -1
c8 -6 16 -11 24 -16l2 -1c1 -1 2 -2 4 -2c0 0 1 0 2 1c2 1 2 4 2 5v10v4h16h32c10 0 16 6 16 16v85c0 11 -6 17 -16 17zM360 90v5c1 2 1 4 2 6c4 15 17 25 34 25h3h11h41c15 0 29 -11 32 -26c2 -5 1 -12 2 -18c0 -2 2 -4 3 -5c3 -2 5 -1 7 2c0 0 1 0 1 1v17l-1 1
c-1 11 -6 20 -14 27c-8 8 -18 11 -29 12c9 10 14 20 14 32c0 13 -5 24 -14 32c-13 12 -31 15 -47 8c3 6 5 13 5 19c0 13 -5 24 -14 32c-16 15 -40 16 -57 2c-8 -6 -13 -15 -15 -25c-3 -16 2 -29 13 -41c-11 -1 -20 -5 -27 -11c-15 9 -34 8 -49 -4c-8 -6 -13 -15 -15 -25
c-1 -7 -1 -14 1 -21c-5 2 -9 3 -14 3c9 9 14 20 14 32c0 7 -2 14 -5 20v25c0 21 -15 39 -35 44c-3 0 -6 1 -9 2c20 20 16 46 2 61c-15 16 -39 19 -56 6c-9 -6 -15 -14 -18 -25c-3 -16 1 -30 13 -43c-17 -2 -30 -10 -38 -22c-3 -1 -5 -3 -8 -5c-9 -6 -15 -15 -18 -25
c-3 -16 1 -31 13 -43c-23 -2 -39 -16 -43 -36c-2 -9 -1 -18 -1 -27c0 -5 2 -7 5 -7c4 0 6 2 6 7v15c0 22 15 37 37 37h6v0h49c8 -1 16 -4 21 -9l6 -6c-28 -3 -45 -25 -45 -51c1 -6 1 -12 1 -18h-45v29c1 7 -2 11 -7 15c-4 3 -9 1 -9 -3c-1 -2 0 -4 2 -5c2 -2 3 -5 3 -9v-13
v-14h-19v4c0 4 -3 6 -6 6s-5 -3 -5 -6v-7c-1 -3 0 -6 3 -8h83c0 -6 0 -13 -1 -19c0 -3 1 -6 4 -8h82c-1 -5 -1 -10 -1 -15c0 -3 1 -6 4 -8h144v22h134v27c-2 2 -5 4 -8 3c-3 -2 -4 -5 -3 -8v-11h-19v24c0 5 -1 9 4 13c2 1 2 4 0 6c-1 1 -4 3 -6 2c-4 0 -10 -8 -10 -12v-29
v-4h-64v4v29c0 4 -6 12 -10 13c-1 0 -2 0 -3 -1c-4 -1 -5 -6 -2 -9s4 -6 4 -9v-23c0 -1 0 -2 -1 -3h-18v13c0 9 -1 18 0 27v7zM422 202c18 0 33 -15 33 -32c0 -12 -6 -21 -15 -27c-3 -2 -6 -4 -10 -5c-2 0 -5 -1 -7 -1c-3 0 -6 1 -8 1c-4 1 -8 3 -11 5c-8 6 -14 16 -14 27
c0 5 2 10 4 15c3 4 6 8 9 10c5 4 12 7 19 7zM334 229c0 17 14 32 32 32s33 -15 33 -32c-1 -18 -15 -33 -33 -33c-17 0 -32 15 -32 33zM340 185h42c-1 -2 -2 -4 -2 -7c-3 -15 2 -29 13 -40c-22 -3 -38 -17 -43 -37h-1l-2 2c-4 4 -8 6 -13 8c-3 2 -7 3 -11 4h-5c2 2 4 4 5 6
c4 6 7 13 8 20c1 2 1 4 1 6c0 13 -5 23 -13 32c5 4 13 6 21 6zM288 180c5 0 9 -1 14 -3l9 -6c6 -6 10 -14 10 -23v-2c-1 -3 -1 -6 -2 -8c-3 -8 -8 -15 -15 -19c-3 -1 -7 -3 -11 -3c-2 0 -3 -1 -5 -1c-17 0 -32 15 -32 33c0 17 14 32 32 32zM177 152c0 1 -1 1 -1 2
c-2 3 -4 7 -4 11c-1 2 -1 4 -1 6c0 17 14 31 31 32h1c4 0 8 -1 12 -2c7 -3 12 -8 16 -14c3 -5 5 -10 5 -17c0 -6 -2 -11 -5 -16c-6 -9 -16 -16 -28 -16c-8 0 -15 3 -21 9c-1 2 -3 4 -5 5zM136 293c1 18 15 32 33 32c18 -1 32 -15 32 -33c-1 -18 -15 -32 -33 -32
c-18 1 -32 15 -32 33zM143 249h51c22 0 37 -15 37 -37v-8c-16 13 -38 13 -55 1c-8 -7 -13 -15 -15 -26c-1 -5 -1 -9 -1 -14h-11c-1 1 -1 1 -2 1c20 20 16 47 2 61c-8 9 -19 14 -30 14c6 5 14 8 24 8zM97 173c-7 6 -12 15 -12 25c0 9 4 18 11 23c3 4 8 6 13 8c3 0 6 1 9 1
c18 -1 32 -15 32 -33c-1 -10 -6 -20 -14 -26c-3 -2 -7 -4 -11 -5c-3 0 -5 -1 -8 -1c-4 0 -8 1 -11 3c-3 1 -7 3 -9 5zM171 43v4v12v11v6c0 4 -6 12 -10 13h-1v0v0h-1v0l-1 -1c-4 -1 -5 -6 -1 -9c2 -3 3 -6 3 -9v-6v-5v-12v-3h-19v15v12v25c2 19 17 31 36 31h2h11h42
c10 0 19 -4 25 -11c-27 -4 -44 -25 -43 -51c1 -7 1 -14 1 -21c-15 -1 -29 -1 -44 -1zM351 20h-19v24c0 5 -1 9 4 13c2 1 2 4 0 6c-1 1 -4 3 -5 2c-4 0 -10 -8 -10 -12v-29v-4h-65v4v8v11v10c0 4 -5 11 -9 12l-1 1c-1 0 -2 0 -3 -1c-4 -1 -5 -6 -1 -9c2 -3 3 -6 3 -9v-15v-8
v-4h-19v12v11v30c2 18 17 31 36 31h1h12h17h12h13h6c8 -2 16 -7 21 -14c2 -3 4 -6 5 -9c0 -14 0 -28 -1 -42c0 -3 1 -5 3 -7v-1v-11z" />
  </font>
</defs>
</svg>
